Погружение в классику
Погружение в классику
RSS
аудио
Меню сайта
Поиск
по заголовкам
по всему сайту
поиск от Google

Из нашего архива
В.А. Моцарт, концерты для ф-но №15,23,24, Соломон (ape) [аудио]
Й.Гайдн – Сонаты для Фортепиано. С.Рихтер. Haydn - Piano Sonatas - Sviatoslav Richter [аудио]
Ойстрах и Рихтер играют сонаты для скрипки и ф-но Шостаковича и Франка (ape) [аудио]
Календарь новостей
«  Март 2013  »
ПнВтСрЧтПтСбВс
    123
45678910
11121314151617
18192021222324
25262728293031

Приветствуем Вас, Гость.
Текущая дата: Четверг, 16 Июля 20, 19:28
Главная страница » 2013 » Март » 21 » Алексис Вайссенберг играет Брамса и Франка.
Алексис Вайссенберг играет Брамса и Франка.

Теги: Караян, Брамс, франк, концерт, Мути, Симфонические вариации, Вайссенберг

         Ещё один диск для тех, кому нравится творчество замечательного пианиста Алексиса Вайссенберга. Первый фортепианный концерт Йоханнеса Брамса звучит в сопровождении Филадельфийского оркестра - дирижирует Рикардо Мути , Симфонические вариации Сезара Франка звучат в сопровождении Берлинского Филармонического оркестра, дирижёр -  Герберт фон Караян.

   $IMAGE2$   

Формат flac+cue, 225 mb,  сканов нет.
Утянуто с Авакса. 


http://files.mail.ru/0D5ED6ECFAF0469EA3FE9E017EA2EF8A
Категория: аудио | Просмотров: 3264 | Добавил(а): nixelle
Важно: что делать, если ссылка на скачивание не работает.
Понравился материал?
Ссылка
html (для сайта, блога, ...)
BB (для форума)
Комментарии
Всего комментариев: 15
1. alex sidmak (sidmak)   (25 Января 11 00:38) [Материал]
1. Piano Concerto No. 1 in D minor, Op. 15
Composed by Johannes Brahms
Performed by Philadelphia Orchestra
with Alexis Weissenberg
Conducted by Riccardo Muti

2. Symphonic Variations, for piano & orchestra
Composed by Cesar Franck
Performed by Berlin Philharmonic Orchestra
with Alexis Weissenberg
Conducted by Herbert von Karajan

:)

обложка - http://pixhost.info/pictures/1115059


2. (nixelle)   (25 Января 11 00:51) [Материал]
Благодарю, исправила :)

3. anm (alyosha)   (25 Января 11 14:53) [Материал]
Большое спасибо!

4. Екатерина (catrings)   (25 Января 11 21:31) [Материал]
Спасибо большое!

5. Максим Иванов (mathieum)   (26 Января 11 06:03) [Материал]
Nixelle, спасибо большое!!! appl appl appl
Очень люблю Первый концерт!

Только проверьте и исправьте CUE-файл, там у Вас путаница и невозможно разбить на дорожки. Сам не умею исправлять. :D


6. (nixelle)   (26 Января 11 11:52) [Материал]
С cue ничего не могу поделать, к сожалению, утянула его в таком виде. Если кто-то может исправить, сделайте пожалуйста, я не умею :(

7. Максим Иванов (mathieum)   (26 Января 11 12:28) [Материал]
Ребята, друзья! Кто скачал этот пост! Помогите, пожалуйста, ИСПРАВИТЬ CUE-файл! Просим вместе с автором выкладки NIXELLE!

С благодарностью Nixelle и Максим. flower


8. Леонид Садович (trezv)   (26 Января 11 15:26) [Материал]
Из cue-файла убираем в двух местах (TRACK 03 и 04) вот эту строку:
INDEX 00 21:50:52
Как она туда затесалась, неизвестно.
Будьте внимательны, не смахните заодно из TRACK 02
INDEX 01 21:50:52
А если проще, вот весь cue-файл:
REM GENRE Classical
REM DATE 2004
REM DISCID 1E0EC304
REM COMMENT "ExactAudioCopy v0.99pb5"
PERFORMER "Alexis Weissenberg, Riccardo Multi, Herbert von Karajan"
TITLE "Brahms Klavierkonzert Nr.1, Franck Variations symphoniques"
FILE "Alexis Weissenberg, Riccardo Multi, Herbert von Karajan - Brahms Klavierkonzert Nr.1, Franck Variations symphoniques.flac" WAVE
TRACK 01 AUDIO
TITLE "Johannes Brahms - Klavierkonzert Nr.1 d-moll op.15 "
PERFORMER "Alexis Weissenberg, Riccardo Multi, Herbert von Karajan"
INDEX 01 00:00:00
TRACK 02 AUDIO
TITLE "Johannes Brahms - Klavierkonzert Nr.1 d-moll op.15 "
PERFORMER "Alexis Weissenberg, Riccardo Multi, Herbert von Karajan"
INDEX 01 21:50:52
TRACK 03 AUDIO
TITLE "Johannes Brahms - Klavierkonzert Nr.1 d-moll op.15 "
PERFORMER "Alexis Weissenberg, Riccardo Multi, Herbert von Karajan"
INDEX 01 35:20:40
TRACK 04 AUDIO
TITLE "Cйsar Franck - Variations symphoniques"
PERFORMER "Alexis Weissenberg, Riccardo Multi, Herbert von Karajan"
INDEX 01 47:09:62

9. Максим Иванов (mathieum)   (26 Января 11 15:42) [Материал]
ЛЕОНИД, СПАСИБО ОГРОМНОЕ ЗА ПОМОЩЬ! appl appl appl

10. Максим Иванов (mathieum)   (26 Января 11 15:47) [Материал]
Леонид, если я понял правильно, то нужно CUE (открыв в блокноте), весь удалить и вставить вашу информацию? :(

11. Леонид Садович (trezv)   (26 Января 11 15:55) [Материал]
Именно так.

12. Максим Иванов (mathieum)   (26 Января 11 19:51) [Материал]
Леонид, скачал. Пробую разделить на дорожки с помощью Easy CD-DA Extractor - выдает ошибку декодирования. В чем еще может быть проблем?

14. Леонид Садович (trezv)   (27 Января 11 12:49) [Материал]
А у меня всё получилось. Вот на всякий случай исправленный CUE: http://files.mail.ru/4D5KWC4D5KWC4D5KWC4D5KWC4D5KWCXX

13. (nixelle)   (26 Января 11 20:37) [Материал]
Большое спасибо за помощь, попробую разделить и, если выйдет перезалью потреково.

15. NNN (Nora)   (22 Марта 13 08:16) [Материал]
Спасибо!

Добавлять комментарии могут только зарегистрированные пользователи.
[ Регистрация | Вход ]

Аудио/видеозаписи и литература предоставляются исключительно для ознакомления. После ознакомления они должны быть удалены, иначе, вероятно, Вами будет нарушен закон "об авторском праве и смежных правах".
Помощь тяжело больным детям. Подробнее.
Форма входа








ПОГРУЖЕНИЕ В КЛАССИКУ. Здесь живет бесплатная классическая музыка в mp3 и других форматах.