Погружение в классику
Погружение в классику
RSS
аудио
Меню сайта
Поиск
по заголовкам
по всему сайту
поиск от Google

Из нашего архива
Р.Шуман – Концерт для Фортепиано Ля Минор, Ор. 54. А.Б.Микеланджели. [аудио]
Арфовые концерты и пьесы - Гендель, Буалдье, Диттерсдорф, Моцарт(?), Бетховен. Мариса Роблес (арфа) [аудио]
Г.Ф. Гендель, Dixit Dominum, Дж.Э. Гардинер (ape) [аудио]
Календарь новостей
«  Октябрь 2012  »
ПнВтСрЧтПтСбВс
1234567
891011121314
15161718192021
22232425262728
293031

Приветствуем Вас, Гость.
Текущая дата: Пятница, 23 Октября 20, 14:49
Главная страница » 2012 » Октябрь » 19 » Вокальные и инструментальные шедевры английского Ренессанса. Булл, Таллис, Редфорд, Эллисон, Берд, Холборн, etc. THE ROYAL WIND MUSIC
Вокальные и инструментальные шедевры английского Ренессанса. Булл, Таллис, Редфорд, Эллисон, Берд, Холборн, etc. THE ROYAL WIND MUSIC

Теги: полифония, Таллис, Булл, шедевры, Редфорд, англия, Wind music, Бёрд, ренессанс



A Noble Noyse of Musicke
Vocal & instrumental master works of the English Renaissance



THE ROYAL WIND MUSIC, dir. Paul Leenhourts
Christopher Field, countertenor

flac, scans


John BULL (c.1562-1628)
1. In Nomine IV

Thomas TALLIS (c.1505-1585)
2. Iam lucis orto sidere

John REDFORD (c.1486-1547)
3. O lux beata Trinitas
 
Richard ALLISON (c.1560-c.1610)
4. Quadran Pavan

anon (England, 16th c)
5. In Paradise

anon (England, 16th c)
6. I love unloved

WILLIAM Mure of Rowallan (1594-1657)
7. Kathrein Bairdie
8. Gypsies Lilt
9. Ouer the Dek Davie
10. Corn Gaird(es)

 William BYRD (1543-1623)
11. Fantasia I a 6

12. Anthony HOLBORNE (c.1545-1602)
Galliard The Teares of the Muses

 William BYRD
13. Ave verum corpus

John COPRARIO (c.1570-1626)
14. Fortune and glory

John DANYEL (1564-c.1626)
15. Can doleful notes?
16. Time, cruel time

Thomas CAMPION (1567-1620)
17. Author of light

Thomas TALLIS
18. When shall my sorrowful sighing slack

Edward COLLARD (fl. 1598)
19. Go from my window

John BULL
20. English toy
21. Irish toy
 
anon (England, 16th c)
22. Farewell the Bliss

Christopher Field (alto); Paul Leenhouts (recorder); Israel Golani (lute); Johan Hofmann (harpsichord); Matthias Havinga (organ)
The Royal Wind Music (Stephanie Brandt; Erik Bosgraaf; Lena Chatzigrigoriou; Jon Daniels; Arwieke Glas; Hester Groenleer; Miako Klein; Matthijs Lunenburg; María Martínez Ayerza; Amy Power; Monika Ruusmaa; Ann-Katrin Seifert (renaissance recorders))



288 Mb

http://narod.ru/disk/62657300001.efe22d24a054a2e605bfb2cd8cdf2292/EngRenWind.rar.html

Пароль: God.was.here

Источник: WEB
Категория: аудио | Просмотров: 2443 | Добавил(а): Годяев
Важно: что делать, если ссылка на скачивание не работает.
Понравился материал?
Ссылка
html (для сайта, блога, ...)
BB (для форума)
Комментарии
Всего комментариев: 12
1. Raina (Raina)   (19 Октября 12 10:49) [Материал]
Спасибо!

2. Сильвио (komponist)   (19 Октября 12 15:02) [Материал]
Музыки благородный шум
Нас отвлечет от скорбных дум -
Где мысль становится безмолвной,
Там радость сердца будет полной! :)

appl appl appl

3. Алексей Годяев (Godyaev)   (19 Октября 12 15:20) [Материал]
Пожалуйста всем!

4. (Valest)   (20 Октября 12 13:31) [Материал]
Спасибо за интересную выкладку.

Если заменить в любом текстовом редакторе (хоть Notepad) содержимое файла CUE следующим, то он заработает корректно:

REM DISCID 3C0ED116
REM COMMENT "ExactAudioCopy v0.95b4"
PERFORMER "The Royal Wind Music"
TITLE "A Noble Noyse Of Musicke"
FILE "01 - John Bull - In Nomine IV.flac" WAVE
TRACK 01 AUDIO
TITLE "John Bull / In Nomine IV"
PERFORMER "The Royal Wind Music"
INDEX 01 00:00:00
FILE "02 - Thomas Tallis - Iam Lucius Orto Sidere.flac" WAVE
TRACK 02 AUDIO
TITLE "Thomas Tallis / Iam Lucius Orto Sidere"
PERFORMER "The Royal Wind Music"
INDEX 01 00:00:00
FILE "03 - John Redford - O Lux Beata Trinitas.flac" WAVE
TRACK 03 AUDIO
TITLE "John Redford / O Lux Beata Trinitas"
PERFORMER "The Royal Wind Music"
INDEX 01 00:00:00
TRACK 04 AUDIO
TITLE "Richard Allison / Quadran Pavan"
PERFORMER "The Royal Wind Music"
INDEX 00 01:40:27
FILE "04 - Richard Allison - Quadran Pavan.flac" WAVE
INDEX 01 00:00:00
TRACK 05 AUDIO
TITLE "William Mure Of Rowallan / In Paradise"
PERFORMER "The Royal Wind Music"
INDEX 00 05:28:13
FILE "05 - William Mure Of Rowallan - In Paradise.flac" WAVE
INDEX 01 00:00:00
TRACK 06 AUDIO
TITLE "William Mure Of Rowallan / I Love Unloved"
PERFORMER "The Royal Wind Music"
INDEX 00 02:16:73
FILE "06 - William Mure Of Rowallan - I Love Unloved.flac" WAVE
INDEX 01 00:00:00
TRACK 07 AUDIO
TITLE "William Mure Of Rowallan / Katherein Bairdie"
PERFORMER "The Royal Wind Music"
INDEX 00 05:22:03
FILE "07 - William Mure Of Rowallan - Katherein Bairdie.flac" WAVE
INDEX 01 00:00:00
FILE "08 - William Mure Of Rowallan - Gypsies Lilt.flac" WAVE
TRACK 08 AUDIO
TITLE "William Mure Of Rowallan / Gypsies Lilt"
PERFORMER "The Royal Wind Music"
INDEX 01 00:00:00
FILE "09 - William Mure Of Rowallan - Ouer The Dek Davie.flac" WAVE
TRACK 09 AUDIO
TITLE "William Mure Of Rowallan / Ouer The Dek Davie"
PERFORMER "The Royal Wind Music"
INDEX 01 00:00:00
FILE "10 - William Mure Of Rowallan - Corn Gaird.flac" WAVE
TRACK 10 AUDIO
TITLE "William Mure Of Rowallan / Corn Gaird"
PERFORMER "The Royal Wind Music"
INDEX 01 00:00:00
(продолжение в следующем комментарии)

5. (Valest)   (20 Октября 12 13:33) [Материал]
Дополните в файле оставшуюся часть:

TRACK 11 AUDIO
TITLE "William Byrd / Fantasia I A6"
PERFORMER "The Royal Wind Music"
INDEX 00 00:58:34
FILE "11 - William Byrd - Fantasia I A6.flac" WAVE
INDEX 01 00:00:00
TRACK 12 AUDIO
TITLE "Antony Holborne / Galliard The Teares Of The Muses"
PERFORMER "The Royal Wind Music"
INDEX 00 05:43:16
FILE "12 - Antony Holborne - Galliard The Teares Of The Muses.flac" WAVE
INDEX 01 00:00:00
TRACK 13 AUDIO
TITLE "William Byrd / Ave Verum Corpus"
PERFORMER "The Royal Wind Music"
INDEX 00 01:32:26
FILE "13 - William Byrd - Ave Verum Corpus.flac" WAVE
INDEX 01 00:00:00
TRACK 14 AUDIO
TITLE "John Coprario / Fortune And Glory"
PERFORMER "The Royal Wind Music"
INDEX 00 03:02:04
FILE "14 - John Coprario - Fortune And Glory.flac" WAVE
INDEX 01 00:00:00
TRACK 15 AUDIO
TITLE "John Danyel / Can Doleful Notes"
PERFORMER "The Royal Wind Music"
INDEX 00 03:53:43
FILE "15 - John Danyel - Can Doleful Notes.flac" WAVE
INDEX 01 00:00:00
FILE "16 - John Danyel - Time, Cruel Time.flac" WAVE
TRACK 16 AUDIO
TITLE "John Danyel / Time, Cruel Time"
PERFORMER "The Royal Wind Music"
INDEX 01 00:00:00
TRACK 17 AUDIO
TITLE "Thomas Campion / Author Of Light"
PERFORMER "The Royal Wind Music"
INDEX 00 01:59:03
FILE "17 - Thomas Campion - Author Of Light.flac" WAVE
INDEX 01 00:00:00
TRACK 18 AUDIO
TITLE "Thomas Tallis / When Shall My Sorrowful Sighing Slack"
PERFORMER "The Royal Wind Music"
INDEX 00 02:58:41
FILE "18 - Thomas Tallis - When Shall My Sorrowful Sighing Slack.flac" WAVE
INDEX 01 00:00:00
TRACK 19 AUDIO
TITLE "Edward Collard / Go From My Window"
PERFORMER "The Royal Wind Music"
INDEX 00 02:45:35
FILE "19 - Edward Collard - Go From My Window.flac" WAVE
INDEX 01 00:00:00
TRACK 20 AUDIO
TITLE "John Bull / English Toy"
PERFORMER "The Royal Wind Music"
INDEX 00 03:47:36
FILE "20 - John Bull - English Toy.flac" WAVE
INDEX 01 00:00:00
TRACK 21 AUDIO
TITLE "John Bull / Irish Toy"
PERFORMER "The Royal Wind Music"
INDEX 00 01:21:22
FILE "21 - John Bull - Irish Toy.flac" WAVE
INDEX 01 00:00:00
TRACK 22 AUDIO
TITLE "Francisco Guerrero / Farewellt The Bliss"
PERFORMER "The Royal Wind Music"
INDEX 00 01:56:42
FILE "22 - Francisco Guerrero - Farewellt The Bliss.flac" WAVE
INDEX 01 00:00:00

6. Валерий Бахтин (Bahtin)   (20 Октября 12 22:16) [Материал]
Спасибо appl

7. 11 11 (fanat)   (21 Октября 12 00:19) [Материал]
Прошу прощения,но какой пароль для извлечения файлов.Заранее благодарен.или я не знаю чего то?

8. почитатель (kubra)   (21 Октября 12 11:15) [Материал]
Под ссылкой он: God.was.here

Расставил строчки и выделил ссылку и пароль другими цветами. Рекомендую всем обозначать ссылки и пароли другими цветами и/или другими размерами, чтобы они выделялись на фоне остального текста.

9. 11 11 (fanat)   (21 Октября 12 16:35) [Материал]
Благодарю "почитателя" и раздающего.

10. Fatum (Fatum)   (28 Октября 12 16:38) [Материал]
СПАСИБО БОЛЬШОЕ!

11. Алексей Годяев (Godyaev)   (28 Октября 12 20:03) [Материал]
Пожалуйста! И спасибо за дополнения!

12. Пётр Аркадьев (peterarkadiev)   (23 Января 17 22:53) [Материал]
Спасибо.

Добавлять комментарии могут только зарегистрированные пользователи.
[ Регистрация | Вход ]

Аудио/видеозаписи и литература предоставляются исключительно для ознакомления. После ознакомления они должны быть удалены, иначе, вероятно, Вами будет нарушен закон "об авторском праве и смежных правах".
Помощь тяжело больным детям. Подробнее.
Форма входа








ПОГРУЖЕНИЕ В КЛАССИКУ. Здесь живет бесплатная классическая музыка в mp3 и других форматах.