Погружение в классику
Погружение в классику
RSS
видео
Меню сайта
Поиск
по заголовкам
по всему сайту
поиск от Google

Из нашего архива
И.С.Бах, сонаты для скрипки и клавесина, Ванда Ландовска, Иегуди Менухин (ape) [аудио]
Ave Maria. Камерный хор "Ave Sol". Руководитель Имантс Кокарс. (APE) [аудио]
В.А. Моцарт, сонаты и вариации для скрипки и фортепиано, Д. Ойстрах, П. Бадура-Шкода (ape) [аудио]
Календарь новостей
«  Май 2020  »
ПнВтСрЧтПтСбВс
    123
45678910
11121314151617
18192021222324
25262728293031

Приветствуем Вас, Гость.
Текущая дата: Понедельник, 01 Июня 20, 05:10
Главная страница » 2020 » Май » 16 » Вольфганг Амадей Моцарт - Так поступают все женщины (Пермский театр оперы и балета им. П.И. Чайковского - 2019 г.)
Вольфганг Амадей Моцарт - Так поступают все женщины (Пермский театр оперы и балета им. П.И. Чайковского - 2019 г.)

Теги: Надежда Павлова, Пермь Опера, Так поступают все, Вольфганг Амадей Моцарт, Теодор Курентзис, моцарт, Cosi fan tutte, MozArt, Wolfgang Amadeus Mozart



Вольфганг Амадей Моцарт - Так поступают все женщины
Опера-буффа в двух действиях
Либретто Лоренцо Да Понте

Постановка 2011 года. Возобновление 2019 года

Музыкальный руководитель постановки — Теодор Курентзис
Режиссер-постановщик — Маттиас Ремус
Художник-постановщик — Штефан Дитрих
Художник по свету — Хайнц Каспер
Хормейстер-постановщик — Виталий Полонский
Ассистент режиссера — Татьяна Полуэктова
Ассистент художника-постановщика — Петер Коппатч
Ассистенты художника по свету — Дмитрий Ерашкин, Алексей Хорошев
Вокальный коуч — Медея Ясониди

Действующие лица и исполнители:
Фьордилиджи — Надежда Павлова
Дорабелла — Наталья Буклага
Деспина — Элени-Лидия Стамеллу
Дон Альфонсо — Гарри Агаджанян
Феррандо — Станислав Леонтьев
Гульельмо — Константин Сучков

Группа континуо:
Хаммерклавир — Мария Шабашова
Виолончель — Александр Прозоров
Лютня — Явор Генов

Хор и оркестр musicAeterna Пермского театра оперы и балета (на момент записи спектакля в 2019 году)
Дирижер — Петр Белякин

Запись спектакля от 12 мая 2019 года

Продолжительность - 03:21:48
Исполнение на итальянском языке (без субтитров)


Трансляция записи спектакля в интернете состоялась 15-го мая 2020 г.
Выкладываю в том виде, в каком скачала (интервью, комментарии, антракт, анонсы и проч.)

mp4
1920х1080   5,8 GB
Пароль - intoclassics
Ccылки:


Технические параметры файла
Video
Format: AVC
Format/Info: Advanced Video Codec
Format profile: High@L4
Format settings: CABAC / 4 Ref Frames
Format settings, CABAC: Yes
Format settings, Reference: 4 frames
Format settings, GOP: M=4, N=25
Codec ID: avc1
Codec ID/Info: Advanced Video Coding
Bit rate: 3 967 kb/s
Width: 1 920 pixels
Height: 1 080 pixels
Display aspect ratio: 16:9
Frame rate mode: Constant
Frame rate: 25.000 FPS
Chroma subsampling: 4:2:0
Bit depth: 8 bits
Scan type: Progressive
Stream size: 5.59 GiB (96%)
Codec configuration box: avcC
Audio
Format: AAC LC
Format/Info: Advanced Audio Codec Low Complexity
Codec ID: mp4a-40-2
Bit rate mode: Constant
Bit rate: 140 kb/s
Channel(s): 2 channels
Channel layout: L R
Sampling rate: 48.0 kHz
Frame rate: 46.875 FPS (1024 SPF)
Compression mode: Lossy
Stream size: 202 MiB (3%)

Категория: видео | Просмотров: 553 | Добавил(а): kurcevaelena
Важно: что делать, если ссылка на скачивание не работает.
Понравился материал?
Ссылка
html (для сайта, блога, ...)
BB (для форума)
Комментарии
Всего комментариев: 8
1. (Тугоухий)   (16 Мая 20 16:57) [Материал]
С параметрами Вы явно переборщили. Подозреваю, что в пику Аспиду, которого никак не могу уговорить указывать битрейт аудио. laugh

Video: AVC, 1920 х 1080 pixels, 25 FPS, 3 967 kb/s
Audio: AAC, 140 kb/s, 48 kHz, stereo
Dictum sapienti sat est.

Спасибо!

2. Elena Kurceva (kurcevaelena)   (16 Мая 20 18:43) [Материал]
Пожалуйста. :)

===========================

Что мне программа MediaInfo показала, то я и указала здесь. shy

3. Taras V. (little_listener)   (16 Мая 20 19:19) [Материал]
Спасибо, Елена. Смотрел вчера трансляцию онлайн -- понравилось. Особенно женские голоса.

4. Elena Kurceva (kurcevaelena)   (16 Мая 20 19:34) [Материал]
Пожалуйста.
Мне тоже понравилось, потому и скачала.
:)

5. (Инжир)   (16 Мая 20 19:49) [Материал]
Более легкие рипы с Youtube:

1). 1920x1080 - https://cloud.mail.ru/public/22Ay/5bTX4DFiR - 1,59 Gb

2). 1280x720 - https://cloud.mail.ru/public/5nT3/2BQ416Bim - 632 Mb

6. Elena Kurceva (kurcevaelena)   (16 Мая 20 20:07) [Материал]
Большое спасибо! :)

7. (terrestro)   (16 Мая 20 21:21) [Материал]
Даже не представляю, как можно в русской манере петь Моцарта!
Одно дело - Вагнер. Это как-бы достаточно близко - тяжелый, плотный звук и отсутствие легкого, мобильного звучания (у Моцарта полным-полно скачков, и больших по интервалике) на всё диапазоне. Ну и наш, российский менталитет...
Итальянцы, при всем своём жизнелюбии и открытости, чем-то напоминающие венцев, поют Моцарта всё же не очень хорошо - им мешает живость излишняя. Обычно темпы всегда быстроваты и мне это мешает. Немцы, что бы не говорили, могут петь Вагнера, но не Моцарта или же наоборот, т.е. Моцарта и не Вагнера. Но лучше венцев Моцарта никто не поёт. Но русские певцы и Моцарт - это вообще никак, на мой вкус.

8. Elena Kurceva (kurcevaelena)   (16 Мая 20 21:52) [Материал]
О вкусах спорить не буду.
У всех у нас есть право на свое мнение.
:)

Добавлять комментарии могут только зарегистрированные пользователи.
[ Регистрация | Вход ]

Аудио/видеозаписи и литература предоставляются исключительно для ознакомления. После ознакомления они должны быть удалены, иначе, вероятно, Вами будет нарушен закон "об авторском праве и смежных правах".
Помощь тяжело больным детям. Подробнее.
Форма входа








ПОГРУЖЕНИЕ В КЛАССИКУ. Здесь живет бесплатная классическая музыка в mp3 и других форматах.