Погружение в классику
Погружение в классику
RSS
аудио
Меню сайта
Поиск
по заголовкам
по всему сайту
поиск от Google

Из нашего архива
Д. Букстехуде - 7 Сонат, Ор. 1 - J. Holloway, J. ter Linden, L. U. Mortensen [аудио]
Бетховен – Концерт для Фортепиано № 3, До Минор. Р.Лупу. З.Мета. [аудио]
Ванда Ландовска (клавесин) играет Баха: Гольдберг-вариации, Итальянский концерт, хроматическая фантазия и фуга (ape) [аудио]
Календарь новостей
«  Март 2013  »
ПнВтСрЧтПтСбВс
    123
45678910
11121314151617
18192021222324
25262728293031

Приветствуем Вас, Гость.
Текущая дата: Среда, 30 Сентября 20, 05:08
Главная страница » 2013 » Март » 4 » Играет Ралф Киркпатрик, клавесин
Играет Ралф Киркпатрик, клавесин

Восстановил ссылку.

1. Purcell - Toccata in A major.
2. Couperin - Suite No.23 in E major.
3. Rameau - Les niais de Sologne.
4. Handel - Suite Vol.1, No.8 in F minor, HWV433.
5. D.Scarlatti - Sonata in B flat major, K.248 (L. S35).
6. D.Scarlatti - Sonata in B flat major, K.249 (L. 39).
7. D.Scarlatti - Sonata in D major, K.436 (L. 109).
8. Bach, J.S. - Fantasia in C minor, BWV906.

Д 034375-6

Оцифровка пластинки в FLAC, мп3~245.

Источник: rutracker - Здесь я исправил неправильный CUE.

Ссылка: http://files.mail.ru/D09D5E945BB54EC78AD8E0B34E4504DB

http://zalivalka.ru/31401
http://zalivalka.ru/31398

-----------------------------

Оцифровка пластинки в мп3-128 из личной коллекции со сканами:

Ссылки: http://files.mail.ru/F65D71A4C9FB4FD0962337309DD7012A

или http://www.putlocker.com/file/DED5BE1131D8A581

Примечание: Если будете слушать из плейера, то качайте мой рип - качество одинаковое.

----------------------------

Ralph Kirkpatrick (Harpsichord)
Born: June 10, 1911 - Leominster, Massachusetts, USA
Died: April 13, 1984 - Guildford, Connecticut, USA


Ральф Киркпатрик — один из выдаю­щихся современных клавесинистов — ро­дился в 1911 году в США (штат Масачусетс). Его учителями были Ванда Ландовска, Арнольд Делмеч, Надя Буланже, Гюнтер Рамин. В 1931—1933 годах молодой му­зыкант совершил большое концертное турне по Европе, принесшее ему настоя­щую славу.

В наше время без участия Киркпатрика не обходится ни один фестиваль старин­ной музыки. Его авторитет в вопросах истории и стилей барочной музыки чрез­вычайно высок. Киркпатрику принадле­жит редакция всех сонат Д. Скарлатти (1953 г.) и хронологический их указатель. Он же является редактором многих изда­ний старинной музыки, автором целого ряда трудов по истории музыки барокко. Ральф Киркпатрик—профессор Иельского университета и почетный член многих академий. Репертуар музыканта, основой которого являются сочинения И. С. Баха, охватывает всю клавесинную литературу.

МИНИСТЕРСТВО КУЛЬТУРЫ СССР

Категория: аудио | Просмотров: 4064 | Добавил(а): PANOVNIK
Важно: что делать, если ссылка на скачивание не работает.
Понравился материал?
Ссылка
html (для сайта, блога, ...)
BB (для форума)
Комментарии
Всего комментариев: 11
1. Саба (Maestro)   (12 Ноября 08 10:17) [Материал]
Спасибо огромное!!!

2. Олег (wesen)   (06 Декабря 08 05:33) [Материал]
Спасибо Большое !

3. Земля (Земля)   (04 Марта 13 22:41) [Материал]
Спасибо.
А я думала, что этого у нас нет. Собиралась оцифровать и выложить в шутку, потому что у меня другое оформление конверта пластинки, и на нём крупно написано "Старинные инструменты" и совсем крупно "КЛАВЕСИН". Про Кирпатрика на лицевой строне ни слова, и о композиторах тоже. Вот и мыслилось выложить материал под заголовком "А сегодня, товарищи, я познакомлю вас со старинным инструментом. Он называется "КЛАВЕСИН"".

4. николай кравцов (НикиКравцов)   (04 Марта 13 23:28) [Материал]
Спасибо! Это - бог клавесина! appl appl appl

5. Сильвио (komponist)   (05 Марта 13 01:09) [Материал]
Здесь, по-моему, лучшее исполнение баховской Фантазии c-moll и "Солонских дураков" Рамо! Спасибо!
appl bravo appl

6. Земля (Земля)   (05 Марта 13 01:25) [Материал]
Да и Гендель ничего. bravo

7. (Jivien)   (05 Марта 13 16:50) [Материал]
Сонаты Скарлатти идентифицированы неправильно. Причем, как у Вас, уважаемый Николай, так и на конверте. Как это сделать - пока не знаю, т.к. только B-dur'ных сонат 57, а D-dur'ных 66!

8. (Kuumuudessa)   (06 Марта 13 02:40) [Материал]
Первая соната похожа на K.248, средняя - на K.249, последняя - на K.436.

9. (Jivien)   (07 Марта 13 16:21) [Материал]
Проверил, все правильно. Огромное спасибо за Ваши поиски!
Вот атрибуты по всем каталогам:
Piano sonata, K.248, B (S.35; P.187)
Piano sonata, K.249, B (L.391; P.424)
Piano sonata, K.436, D (L.109; P.404)

10. NIK (PANOVNIK)   (09 Марта 13 23:22) [Материал]
Большое СПАСИБО!

А то доверился нашей уважаемой фирме!

11. NIK (PANOVNIK)   (09 Марта 13 23:31) [Материал]
Првильный CUE:
FILE "Klavesin2A.ape" WAVE
TRACK 01 AUDIO
TITLE "Purcell - Toccata in A major"
INDEX 01 00:00:00
TRACK 02 AUDIO
TITLE "Couperin - Suite No.23 in E major"
INDEX 01 04:58:52
TRACK 03 AUDIO
TITLE "Rameau - Les niais de Sologne"
INDEX 01 18:27:17
FILE "Klavesin2B.ape" WAVE
TRACK 04 AUDIO
TITLE "Handel - Suite Vol.1, No.8 in F minor, HWV 433"
INDEX 01 00:00:00
TRACK 05 AUDIO
TITLE "D.Scarlatti - Sonata in B flat major, K.248 (L. S35)"
INDEX 01 11:01:01
TRACK 06 AUDIO
TITLE "D.Scarlatti - Sonata in B flat major, K.249 (L. 39)"
INDEX 01 14:00:12
TRACK 07 AUDIO
TITLE "D.Scarlatti - Sonata in D major, K.436 (L. 109)"
INDEX 01 18:19:44
TRACK 08 AUDIO
TITLE "Bach, J.S. - Fantasia C in minor, BWV 906"
INDEX 01 19:49:26

Добавлять комментарии могут только зарегистрированные пользователи.
[ Регистрация | Вход ]

Аудио/видеозаписи и литература предоставляются исключительно для ознакомления. После ознакомления они должны быть удалены, иначе, вероятно, Вами будет нарушен закон "об авторском праве и смежных правах".
Помощь тяжело больным детям. Подробнее.
Форма входа








ПОГРУЖЕНИЕ В КЛАССИКУ. Здесь живет бесплатная классическая музыка в mp3 и других форматах.