Погружение в классику
Погружение в классику
RSS
аудио
Меню сайта
Поиск
по заголовкам
по всему сайту
поиск от Google

Из нашего архива
Wilhelm Furtwangler (Вильгельм Фуртвенглер). Beethoven, Violin Concerto/Mozart, Symphony #39. (APE) [аудио]
Э.Гилельс Играет Ф.Шопена (Сонаты №2,3 плюс Этюд f-moll op.25) mp3 [аудио]
Вагнер-Тристан и Изольда. Герберт фон Караян [аудио]
Календарь новостей
«  Май 2011  »
ПнВтСрЧтПтСбВс
      1
2345678
9101112131415
16171819202122
23242526272829
3031

Приветствуем Вас, Гость.
Текущая дата: Воскресенье, 23 Февраля 20, 10:27
Главная страница » 2011 » Май » 4 » Геннадий Николаевич Рождественский
Геннадий Николаевич Рождественский

Теги: Берлиоз, Геннадий, Карен, Хачатурян, Франческа да Римини, Карэн, Рождественский

Фантастическая симфония и Франческа да Римини
формат APE - 358.7 mb

запись с концерта. Оркестр Ленинградской филармонии.

Карэн Хачатурян
Симфония №1
34 mb

Симфония №2

47 mb

запись с пластинок, оцифровывал не я, так что прошу прощения за качество. В ознакомительных целях вполне сойдёт.

Материалы удалены с файлообменника. Нуждаются в восстановлении

Категория: аудио | Просмотров: 1773 | Добавил(а): Akimych
Важно: что делать, если ссылка на скачивание не работает.
Понравился материал?
Ссылка
html (для сайта, блога, ...)
BB (для форума)
Комментарии
Всего комментариев: 7
1. сергей сергеев (seriho)   (04 Мая 11 16:23) [Материал]
Большое Вам спасибо!
Как мне повезло, что я прежде не слышал Фантастическую Берлиоза и Франческу Чайковского в исполнении Рождественского...
Теперь послушаю этот концерт в праздничный день! :)

2. Big Dog (Malamute)   (04 Мая 11 16:36) [Материал]
Большое спасибо!

3. Александр (Палыч)   (04 Мая 11 18:14) [Материал]
Много лет назад купил пластинку с Фантастической симфонией. Знатоки говорили - раньше продавалась неинтересная запись Арвида Янсонса, а Рождественский сделал симфонию здорово!
Потом не раз слушал эту вещь в концертах и в записи, и плохих исполнений не попадалось. Но первая пластинка - эталон.
Геннадию Николаевичу от души желаю здоровья и долголетия!
Спасибо! appl appl appl

4. Oleg (legoru)   (04 Мая 11 20:33) [Материал]
Вот ещё старая мелодиевская пластинка с Прокофьевым
http://s48.radikal.ru/i120/1104/e8/f50e4560f537.jpg

Любовь к трём апельсинам, сюита
Семеро их
Четыре портерета и развязка из оперы "Игрок"

БСО, Г.Рождественский

http://files.mail.ru/NC6CMH
mp3-320 с обложками


5. Александр (Палыч)   (04 Мая 11 21:02) [Материал]
Благодарю и за эту редкую пластинку.
Люблю Три апельсина! :)
И в виде сюиты тоже.

6. (j-avera)   (04 Мая 11 23:41) [Материал]
Попрошу в мр3, по возможности. Заранее влагодарю. Записи действительно стоящие, помню их ещё по пластинкам.

7. Jon Jonson (AmendmentXXI)   (05 Мая 11 01:07) [Материал]
Забавно, несколько поблагодаривших, выкладка уже несколько часов лежит, и никто не спросил cue файла для http://files.mail.ru/3CEJK5, притом, что висящая обложка (ай-ай-ай! Противу правил! Модераторы наверное все лежат без чувст после народных гуляний в чате и не только :) ) намекает, что запись не самопальная, следовательно разбита на треки
:))))

Ну, Геннадий Николаич, дай бог ему здоровья, всегда любил курьезы, правда поизысканней тех, на который мы способны :)

Короче нашлась соотв. запист во Free CD DB, что позволило предложить вам, дамы и господа cue файл:

TITLE "Symphonie Fantastique - Rozhdestvensky - Leningrad Philharmonic Orchestra"
PERFORMER "Rozhdestvensky - Leningrad Philharmonic Orchestra"
REM ** Generated by CueMaster v1.6 **
REM Time : 75:58:00
REM Length: 4558 seconds
REM Year : 1971
REM Genre : Classical
REM DiscID: 4311cc06
FILE "Berlioz - Symphonie Fantastique - Rozhdestvensky - Leningrad Philharmonic Orchestra.ape" MP3
TRACK 01 AUDIO
TITLE "Berlioz - Symphonie Fantastique - I Reveries Passions"
PREGAP 00:02:00
INDEX 01 00:00:00
TRACK 02 AUDIO
TITLE "Berlioz - Symphonie Fantastique - II Un Bal"
INDEX 01 14:10:56
TRACK 03 AUDIO
TITLE "Berlioz - Symphonie Fantastique - III Scene Aux Champs"
INDEX 01 20:37:62
TRACK 04 AUDIO
TITLE "Berlioz - Symphonie Fantastique - IV Marche Au Supplice"
INDEX 01 36:58:62
TRACK 05 AUDIO
TITLE "Berlioz - Symphonie Fantastique - V Songe D'une Nuit Du Sabbat"
INDEX 01 41:33:39
TRACK 06 AUDIO
TITLE "Tchaikovsky - Francesca Da Rimini"
INDEX 01 52:19:14

==============================
Спасибо за выкладку!


Добавлять комментарии могут только зарегистрированные пользователи.
[ Регистрация | Вход ]

Аудио/видеозаписи и литература предоставляются исключительно для ознакомления. После ознакомления они должны быть удалены, иначе, вероятно, Вами будет нарушен закон "об авторском праве и смежных правах".
Помощь тяжело больным детям. Подробнее.
Форма входа








ПОГРУЖЕНИЕ В КЛАССИКУ. Здесь живет бесплатная классическая музыка в mp3 и других форматах.